<?xml version="1.0" standalone="no"?> <!DOCTYPE svg PUBLIC "-//W3C//DTD SVG 1.0//EN" "http://www.w3.org/TR/2001/REC-SVG-20010904/DTD/svg10.dtd" > <svg xmlns="http://www.w3.org/2000/svg" width="100%" height="100%">
<defs >
<font id="MathJax_SansSerif-Regular" horiz-adv-x="407" ><font-face
    font-family="MathJax_SansSerif"
    units-per-em="1000"
    panose-1="0 0 0 0 0 0 0 0 0 0"
    ascent="1017"
    descent="-450"
    alphabetic="0" />
<missing-glyph horiz-adv-x="250" d="M50 0V533H200V0H50ZM100 50H150V483H100V50Z" />
<glyph unicode=" " glyph-name="space" horiz-adv-x="250" />
<glyph unicode="!" glyph-name="exclam" horiz-adv-x="319" d="M120 187Q120 225 115 440T110 693Q110 694 159 694T208 693Q208 655 203 440T198 187Q198 186 159 186T120 187ZM110 0V98H208V0H110Z" />
<glyph unicode="&quot;" glyph-name="quotedbl" horiz-adv-x="500" d="M33 596V694H131V597L82 471H32L47 532Q62 593 63 594Q63 596 48 596H33ZM227 596V694H325V597L276 471H226L241 532Q256 593 257 594Q257 596 242 596H227Z" />
<glyph unicode="#" glyph-name="numbersign" horiz-adv-x="833" d="M56 350Q56 363 70 370H192Q314 370 314 371L356 526Q398 682 400 685Q404 694 416 694Q423 694 429 689T436 677Q436 673 396 523T355 371Q355 370 449 370Q544 370 544 371L586 526Q628 682
630 685Q636 694 646 694Q652 694 658 690T665 678Q665 670 645 593T605 444L585 371Q585 370 673 370H762Q777 362 777 350T767 333Q761 330 668 330H573L567 305Q560 282 545 226L530 171L646 170Q761 170 767 167Q777 161 777 150Q777 138 762 130H640Q518 130
518 129L476 -26Q434 -182 432 -185Q426 -194 416 -194Q410 -194 404 -190T397 -178Q397 -170 417 -93T457 56L477 129Q477 130 383 130Q288 130 288 129L246 -26Q204 -182 202 -185Q196 -194 186 -194Q180 -194 174 -190T167 -178Q167 -170 187 -94T227 56L247
129Q247 130 159 130H70Q56 137 56 150Q56 165 72 170H259L265 195Q273 222 287 275L302 330H186L70 331Q63 334 58 339Q56 343 56 350ZM489 170L532 330H343L337 305Q330 282 315 226L300 171L394 170H489Z" />
<glyph unicode="$" glyph-name="dollar" horiz-adv-x="500" d="M55 509Q55 577 99 633T213 701V750H286V703H289Q312 703 354 689Q386 676 417 655Q427 648 427 646L413 569Q413 568 403 575Q352 615 291 624H286V405Q354 390 399 333T444 199Q444 121 399 65T286
-7V-56H213V-9Q124 1 55 51Q44 58 44 60Q44 61 52 101L59 140L69 132Q129 84 204 72L213 70V317L202 319Q147 334 109 374T59 470Q55 487 55 509ZM213 424V620L203 615Q143 585 143 522Q143 490 162 464T213 424ZM296 293L287 297Q286 297 286 186V75L293 79Q322
93 339 121T356 187Q356 222 340 250T296 293Z" />
<glyph unicode="%" glyph-name="percent" horiz-adv-x="833" d="M195 750Q251 750 291 692T332 548Q332 446 276 385Q239 347 195 347Q123 347 80 434Q56 484 56 549Q56 646 108 706Q145 750 195 750ZM206 672Q198 674 195 674Q173 674 159 646Q145 615 145 549Q145
481 159 452T195 423Q198 423 206 425Q232 435 243 492Q248 511 248 549Q248 586 243 605Q232 662 206 672ZM197 -56Q189 -56 183 -50T176 -35Q176 -33 178 -27Q179 -25 399 356T623 741Q627 750 639 750Q648 750 654 744T659 729Q657 721 435 336T207 -52Q203
-56 197 -56ZM639 347Q696 347 736 288T776 146Q776 74 747 21T672 -50Q656 -56 639 -56Q599 -56 565 -25T513 59Q500 97 500 146Q500 242 552 303Q589 347 639 347ZM650 269Q642 271 639 271Q617 271 603 243Q589 212 589 146Q589 78 603 49T639 20Q642 20 650
22Q676 32 687 89Q692 108 692 146Q692 183 687 202Q676 259 650 269Z" />
<glyph unicode="&amp;" glyph-name="ampersand" horiz-adv-x="758" d="M700 -7Q649 -22 586 -22Q564 -22 548 -20Q487 -10 434 26L421 34Q414 31 393 20T364 6Q296 -22 226 -22Q200 -22 183 -18Q140 -9 106 19T55 87Q42 117 42 152Q42 225 95 276Q109 290 144
317L184 348L178 365Q156 430 156 502Q156 611 209 672Q248 716 302 716Q365 716 404 666T444 549Q444 531 442 523Q426 446 304 348L287 334Q312 284 372 207Q428 139 430 139T449 156T479 189Q549 274 583 394Q584 398 586 404Q587 408 587 409Q588 409 626 399T665
388L664 386Q664 384 663 381T661 375Q613 208 502 98L491 87Q536 57 584 57Q656 57 700 75Q702 75 702 34T700 -7ZM359 552Q359 591 345 615T302 640Q260 640 242 593Q233 571 233 535Q236 474 253 417L257 407L271 419Q312 454 330 479Q350 503 358 530Q359 535
359 552ZM345 102Q264 187 216 277Q215 277 204 267T180 247T165 236Q135 208 135 159Q135 125 152 98T198 61Q207 58 227 58Q290 58 357 89L345 102Z" />
<glyph unicode="&apos;" glyph-name="quotesingle" horiz-adv-x="278" d="M90 596V694H188V597L139 471H89L104 532Q119 593 120 594Q120 596 105 596H90Z" />
<glyph unicode="(" glyph-name="parenleft" horiz-adv-x="389" d="M74 -64T74 250T240 733L257 750H333L323 739Q167 573 167 250T323 -239L333 -250H257L240 -233Q74 -64 74 250Z" />
<glyph unicode=")" glyph-name="parenright" horiz-adv-x="389" d="M221 -73T221 250T65 739L55 750H131L148 733Q314 567 314 250T148 -233L131 -250H55L65 -239Q221 -73 221 250Z" />
<glyph unicode="*" glyph-name="asterisk" horiz-adv-x="500" d="M208 717Q211 731 222 740T250 750Q265 750 277 741T291 717Q291 706 290 675T286 617L285 591L329 622L377 656Q384 659 393 659Q410 659 423 647T436 616Q436 600 425 589Q421 584 368 556L316
528L368 500Q421 472 425 467Q436 456 436 440Q436 421 423 409T393 396Q387 396 377 400Q376 401 370 405T351 419T329 434L285 465L286 437Q288 409 289 380T291 347Q291 328 279 317T250 306Q234 306 222 315T208 339Q208 350 209 381T212 439L214 465L170 434Q161
428 148 419T129 406T122 400Q114 397 106 397Q89 397 76 409T63 440Q63 456 74 467Q78 472 131 500L183 528L131 556Q78 584 74 589Q63 600 63 616Q63 635 76 647T106 660Q112 660 122 656Q123 655 129 651T148 637T170 622L214 591L212 617Q211 643 210 674T208
717Z" />
<glyph unicode="+" glyph-name="plus" horiz-adv-x="778" d="M56 237T56 250T70 270H369V420L370 570Q380 583 389 583Q402 583 409 568V270H707Q722 262 722 250T707 230H409V-68Q402 -82 389 -82T369 -68V230H70Q56 237 56 250Z" />
<glyph unicode="," glyph-name="comma" horiz-adv-x="278" d="M90 0V98H188V1L139 -125H89L104 -64Q119 -3 120 -2Q120 0 105 0H90Z" />
<glyph unicode="-" glyph-name="hyphen" horiz-adv-x="333" d="M11 186V259H277V186H11Z" />
<glyph unicode="." glyph-name="period" horiz-adv-x="278" d="M90 0V98H188V0H90Z" />
<glyph unicode="/" glyph-name="slash" horiz-adv-x="500" d="M75 -250Q68 -250 62 -244T56 -231Q56 -221 230 257T407 740Q412 750 425 750Q433 749 439 743T444 730Q444 725 271 248T92 -240Q85 -250 75 -250Z" />
<glyph unicode="0" glyph-name="zero" horiz-adv-x="500" d="M117 621Q174 678 247 678Q306 678 351 647Q396 617 424 557Q460 470 460 328Q460 114 383 34Q327 -22 249 -22Q147 -22 91 67Q39 154 39 316Q39 380 42 414Q55 557 117 621ZM273 599Q267 601 250 601Q186
601 158 539Q132 481 132 340Q132 203 152 141Q171 83 213 63Q229 55 250 55Q270 55 287 63Q338 89 352 155T367 340Q367 481 341 539Q318 588 273 599Z" />
<glyph unicode="1" glyph-name="one" horiz-adv-x="500" d="M94 612Q219 618 277 672L284 678H307V73H430V0H88V73H213V317Q213 560 212 560Q211 559 198 555Q154 541 96 540L83 539V612H94Z" />
<glyph unicode="2" glyph-name="two" horiz-adv-x="500" d="M351 456Q351 516 316 557T222 599Q175 599 145 569T97 475L93 459L67 492L42 526L47 539Q92 663 211 677H225Q303 677 355 644Q449 580 449 454Q449 439 447 425Q434 359 361 290Q352 281 310 245Q272
213 199 144Q148 96 137 85L293 86H449V0H50V79L216 242Q275 295 302 329Q351 388 351 456Z" />
<glyph unicode="3" glyph-name="three" horiz-adv-x="500" d="M242 54Q293 54 323 90T353 184Q353 237 328 271T260 315L213 316H166V354Q166 392 167 392Q182 393 199 395Q239 397 257 405Q290 419 311 449T333 521Q333 561 309 582T243 604Q193 604 156 578Q126
559 99 514L78 546Q56 577 56 579Q54 581 70 599T100 627Q153 669 222 677Q224 677 231 677T242 678H245Q308 678 357 646T424 561Q430 541 430 520Q430 462 393 411Q376 387 328 353Q369 333 373 330Q445 281 456 205Q457 198 457 184Q457 98 394 38T242 -22Q131
-22 51 58L42 68L49 105L55 142Q82 115 88 110Q157 54 242 54Z" />
<glyph unicode="4" glyph-name="four" horiz-adv-x="500" d="M271 654L272 656H380V235H471V159H380V0H286V159H28V235L149 443Q269 652 271 654ZM292 235V607Q291 602 290 596Q281 510 140 267Q136 260 132 253T126 240L123 236Q123 235 207 235H292Z" />
<glyph unicode="5" glyph-name="five" horiz-adv-x="500" d="M223 54Q279 54 311 93T345 197Q345 324 278 348Q271 350 257 350Q233 350 215 341Q181 325 162 284Q157 276 157 273Q157 272 116 272H75V656H416V577H162V486Q162 396 163 396L164 397Q166 398 168
399T173 402Q209 426 258 426Q279 426 286 425Q346 412 387 368T442 261Q449 226 449 203Q449 140 417 88Q378 22 307 -7Q270 -21 226 -21Q125 -21 55 51Q33 73 33 77Q34 78 44 95T64 128L73 144Q93 112 117 93Q164 54 223 54Z" />
<glyph unicode="6" glyph-name="six" horiz-adv-x="500" d="M301 677Q355 677 408 658V621Q408 585 407 585H406Q359 605 308 605Q246 605 203 556T146 421Q143 403 144 403Q145 402 152 409Q206 459 279 468Q285 469 299 469Q315 469 329 467Q372 459 407 405Q457
330 457 226Q457 126 402 57Q369 15 335 -3T251 -22Q188 -22 138 20Q92 59 67 138T42 318Q42 445 93 537T233 664Q266 677 289 677H301ZM277 392Q275 392 270 392T260 393Q245 393 235 391Q194 383 168 341T141 243Q141 153 172 104Q192 68 230 56Q238 54 251 54Q262
54 274 56Q317 66 342 116Q360 152 360 226Q360 297 344 332Q320 382 277 392Z" />
<glyph unicode="7" glyph-name="seven" horiz-adv-x="500" d="M42 570V656H457V577L447 564Q284 364 251 103Q244 45 244 0V-11H145V12Q149 85 157 132Q197 371 356 550L374 571L208 570H42Z" />
<glyph unicode="8" glyph-name="eight" horiz-adv-x="500" d="M55 500Q55 573 111 625T250 678Q313 678 365 643T436 550Q444 524 444 501Q444 489 440 467Q421 393 336 357L329 353H330Q380 334 412 298T454 215Q456 205 456 184Q456 94 394 36T249 -22Q167 -22
105 36T43 184Q43 205 45 215Q54 261 86 297T169 353Q171 354 166 356Q165 356 163 357Q113 378 84 416T55 500ZM200 393T250 393T329 420T358 496Q358 548 330 576T250 605Q199 605 170 577T141 496Q141 447 170 420ZM326 285Q295 316 245 316Q194 316 167 280T139
185Q139 80 222 57Q231 55 250 55Q296 55 327 84Q360 120 360 188Q360 252 326 285Z" />
<glyph unicode="9" glyph-name="nine" horiz-adv-x="500" d="M142 642Q190 677 245 677Q306 677 349 647Q375 629 393 603Q457 510 457 334Q457 149 353 45Q288 -22 205 -22Q135 -22 81 18Q72 23 72 25Q73 25 91 58L110 91Q159 54 203 54Q221 54 233 57Q276 68
306 109T350 212Q351 216 353 228T357 253V257L347 248Q284 187 200 187Q183 187 171 189Q123 200 88 258T44 381Q42 401 42 430Q42 487 54 522T96 596Q118 624 142 642ZM308 582Q283 605 254 605Q205 605 177 572T141 487Q140 478 140 430T141 373Q146 335 164
307T207 269Q223 263 247 263Q271 264 285 271Q318 286 338 325T358 417Q358 449 351 484Q340 552 308 582Z" />
<glyph unicode=":" glyph-name="colon" horiz-adv-x="278" d="M90 346V444H188V346H90ZM90 0V98H188V0H90Z" />
<glyph unicode=";" glyph-name="semicolon" horiz-adv-x="278" d="M90 346V444H188V346H90ZM90 0V98H188V1L139 -125H89L104 -64Q119 -3 120 -2Q120 0 105 0H90Z" />
<glyph unicode="=" glyph-name="equal" horiz-adv-x="778" d="M56 350Q56 363 70 370H707Q722 362 722 350Q722 339 708 331L390 330H72Q56 335 56 350ZM56 150Q56 165 72 170H708Q709 169 712 167T717 163T720 158T722 150Q722 138 707 130H70Q56 137 56 150Z" />
<glyph unicode="?" glyph-name="question" horiz-adv-x="472" d="M83 576Q83 577 70 614T55 652Q55 656 94 675Q154 704 214 704Q254 704 265 703Q335 694 375 655T416 546Q416 474 360 426Q273 351 262 255Q261 249 261 216V186H183V225Q184 281 194 322Q219
419 292 483Q294 485 299 489T306 495Q323 517 323 550Q323 594 299 611T223 629Q187 629 157 618Q122 607 91 583L83 576ZM173 0V98H271V0H173Z" />
<glyph unicode="@" glyph-name="at" horiz-adv-x="667" d="M388 -11Q249 -11 153 94T56 347Q56 410 74 466Q107 566 185 630T362 704H378Q458 704 511 667Q535 651 551 627Q608 547 611 376Q611 320 607 299Q595 229 552 180T449 119Q442 118 422 118Q401 118
395 119Q326 133 279 196T232 347Q232 402 254 455Q300 556 395 575Q401 576 422 576Q440 576 456 573T480 566L488 563Q486 567 483 572Q448 629 387 629Q368 629 338 623Q263 603 212 540T147 388Q146 378 146 347Q146 234 209 156T365 66Q376 65 400 65Q465
68 517 86L532 91H612L598 76Q577 55 550 37Q476 -11 388 -11ZM435 499Q425 501 421 501Q400 501 380 487Q323 447 323 347Q323 299 336 268Q350 232 373 213T422 193Q445 193 463 207Q520 247 520 347Q520 395 507 426Q482 490 435 499Z" />
<glyph unicode="A" glyph-name="A" horiz-adv-x="667" d="M183 181Q183 178 153 95T118 0H28L154 346L280 693Q281 694 333 694H385L511 349Q636 4 638 2Q638 0 584 0H530L464 183H184L183 181ZM324 606Q319 578 292 492T238 332T210 256Q210 254 324 254T438
255L429 281Q351 500 325 604L324 611V606Z" />
<glyph unicode="B" glyph-name="B" horiz-adv-x="667" d="M583 517Q583 494 574 473T551 437T520 409T487 388T456 374T433 366L425 363Q430 363 469 352Q577 313 605 228Q610 208 610 192Q610 157 593 123Q572 80 528 49T426 7Q404 2 387 2T240 0H90V694H227Q373
693 396 689Q508 668 558 594Q583 555 583 517ZM347 621Q340 622 262 623H188V399H261Q344 400 371 407Q447 424 478 475Q490 496 490 516Q490 566 424 598Q395 613 347 621ZM434 297Q400 314 375 318T302 323H259H188V71H274Q365 72 388 77Q436 87 470 113T512
173Q514 183 514 190Q514 231 480 265Q462 283 434 297Z" />
<glyph unicode="C" glyph-name="C" horiz-adv-x="639" d="M559 571Q516 599 480 612T392 626Q376 626 369 625Q283 616 224 538Q164 460 164 347Q164 263 197 200Q236 121 306 88Q347 68 397 68Q453 68 487 79T568 120L581 129L582 110Q584 91 585 71T587 46T543
20Q480 -11 396 -11Q226 -11 128 128Q59 225 59 347Q59 505 169 613Q249 693 362 704Q365 704 375 704T392 705Q471 705 550 680Q577 670 577 667L559 571Z" />
<glyph unicode="D" glyph-name="D" horiz-adv-x="722" d="M88 0V694H237Q386 693 399 691Q510 672 579 588T664 386Q666 366 666 343Q666 318 664 302Q649 172 564 86Q494 18 400 3Q387 1 237 0H88ZM359 621Q348 623 267 623H189V71H267Q349 71 356 72Q410 77
454 106T527 184Q565 251 565 341Q565 433 530 500T431 600Q393 618 359 621Z" />
<glyph unicode="E" glyph-name="E" horiz-adv-x="597" d="M86 0V691H541V611H366L190 612V397H513V321H190V85H372L554 86V0H86Z" />
<glyph unicode="F" glyph-name="F" horiz-adv-x="569" d="M86 0V691H526V611H358L190 612V384H485V308H190V0H86Z" />
<glyph unicode="G" glyph-name="G" horiz-adv-x="667" d="M392 68Q440 68 506 84V223H388V299H599V38L588 33Q493 -11 393 -11Q348 -11 301 2Q198 33 129 127T59 346Q59 462 122 557Q171 630 249 671Q315 704 384 704Q474 704 541 679L590 656Q590 652 582 605T573
557L564 564Q490 626 392 626Q377 626 370 625Q282 615 223 537T164 347Q164 248 210 175T330 78Q360 68 392 68Z" />
<glyph unicode="H" glyph-name="H" horiz-adv-x="708" d="M86 0V694H190V399H517V694H621V0H517V323H190V0H86Z" />
<glyph unicode="I" glyph-name="I" horiz-adv-x="278" d="M87 0V694H191V0H87Z" />
<glyph unicode="J" glyph-name="J" horiz-adv-x="472" d="M287 129V694H388V415Q388 132 387 125Q384 92 369 63Q351 23 310 1T212 -22Q139 -22 61 11L43 20L46 42Q50 65 54 88L58 110Q58 111 65 104Q106 53 181 53Q266 53 284 121L287 129Z" />
<glyph unicode="K" glyph-name="K" horiz-adv-x="694" d="M88 0V694H188V519L189 343L525 694H638L375 419L651 0H541L309 351L188 225V0H88Z" />
<glyph unicode="L" glyph-name="L" horiz-adv-x="542" d="M87 0V694H191V79L297 80H451L499 81V0H87Z" />
<glyph unicode="M" glyph-name="M" horiz-adv-x="875" d="M92 0V694H228L233 680Q246 649 336 403T435 115L436 106Q454 183 603 582Q611 602 619 625T633 662T640 680L645 694H782V0H689V305L688 606Q688 593 681 568T656 490T620 393T565 249T500 78L479 23H392L364
96Q199 538 188 598Q186 608 186 609V588Q185 568 185 517T185 427T185 305V0H92Z" />
<glyph unicode="N" glyph-name="N" horiz-adv-x="708" d="M88 0V694H235L252 659Q254 655 377 400T522 93L526 84V694H619V0H472L455 35Q453 39 330 294T185 601L181 611V0H88Z" />
<glyph unicode="O" glyph-name="O" horiz-adv-x="736" d="M227 676Q293 715 361 715Q386 715 406 713Q471 703 527 664T622 560Q680 465 680 344Q680 311 676 286Q660 168 587 83T403 -20Q387 -22 368 -22Q348 -22 332 -20Q236 -5 165 66Q130 101 105 145Q55 234
55 345Q55 399 69 455Q88 526 129 584T227 676ZM576 360Q576 462 529 539T401 634Q371 637 362 637Q352 637 348 636Q262 626 211 546T159 360Q159 247 206 163T338 61Q346 59 368 59Q389 59 397 61Q478 78 527 162T576 360Z" />
<glyph unicode="P" glyph-name="P" horiz-adv-x="639" d="M88 0V694H230Q373 693 386 691Q472 678 527 619T583 485Q583 467 578 444Q564 378 509 332T379 276Q369 274 279 274H192V0H88ZM357 621Q350 622 268 623H189V347H268Q350 348 357 349Q465 367 485 457Q486
463 486 485Q486 532 462 564Q428 609 357 621Z" />
<glyph unicode="Q" glyph-name="Q" horiz-adv-x="736" d="M227 676Q293 715 361 715Q386 715 406 713Q471 703 527 664T622 560Q680 465 680 344Q680 311 676 286Q661 175 596 94Q577 70 546 44Q536 36 536 35L648 -120L652 -125H531L452 -8L440 -12Q407 -22 369
-22Q257 -22 165 66Q130 101 105 145Q55 234 55 345Q55 399 69 455Q88 526 129 584T227 676ZM404 61Q404 63 360 128T315 194H421L453 150Q485 105 486 105L492 110Q498 116 505 124T517 138Q579 218 579 345Q579 456 527 540T388 636Q382 637 369 637Q320 637
278 610T209 542Q156 462 156 345Q156 234 206 155T337 60Q347 58 368 58Q390 58 395 59Q397 59 399 59T402 60L404 61Z" />
<glyph unicode="R" glyph-name="R" horiz-adv-x="646" d="M88 0V694H227Q370 693 379 692Q434 683 474 663Q528 637 558 595T589 504Q589 483 584 463T569 427T547 397T522 373T495 354T470 339T449 329T434 322L429 320L440 300Q452 280 477 238T523 160L617
1L565 0Q513 0 512 1Q512 2 424 156L337 309H189V0H88ZM367 620Q354 622 271 623H189V385H271Q363 386 388 392Q472 412 490 479Q492 485 492 504T490 529Q471 603 367 620Z" />
<glyph unicode="S" glyph-name="S" horiz-adv-x="556" d="M44 50L62 146Q121 87 216 68Q245 63 274 63H286Q303 63 319 69Q357 81 381 111T406 182Q406 245 352 280Q338 290 324 294T259 312Q196 327 173 339Q122 363 89 408T55 514Q55 546 65 573Q87 638 145
677T283 716Q370 716 447 677L467 667Q467 666 459 618T449 568Q446 571 442 574Q405 606 370 620T282 634Q230 634 197 611T152 549Q150 543 150 525Q150 511 151 506Q163 458 212 435Q228 427 289 412Q353 396 378 384Q433 357 466 306T500 194Q500 105 436 42T272
-22Q244 -22 219 -18Q131 -6 51 43Q44 48 44 50Z" />
<glyph unicode="T" glyph-name="T" horiz-adv-x="681" d="M36 608V688H644V608H518L392 609V0H288V609L162 608H36Z" />
<glyph unicode="U" glyph-name="U" horiz-adv-x="688" d="M87 450V694H191V449Q192 203 193 194Q203 130 239 94Q281 49 347 49Q406 49 447 85T501 178Q505 195 505 218T507 449V694H600V450Q600 414 600 356Q599 198 595 181Q594 178 594 177Q580 115 538 66T439
-4Q394 -22 345 -22Q266 -22 204 19T112 123Q97 153 89 196Q88 205 87 450Z" />
<glyph unicode="V" glyph-name="V" horiz-adv-x="667" d="M14 692Q14 694 68 694H122L146 633Q325 165 339 90Q340 87 341 87Q341 92 354 137Q390 252 530 619L558 694H605Q652 694 652 692Q650 690 523 354T390 10L387 0H279L276 10Q271 18 144 354T14 692Z" />
<glyph unicode="W" glyph-name="W" horiz-adv-x="944" d="M14 693Q14 694 64 694H115Q119 678 174 488Q270 143 270 90L271 85Q272 86 272 92Q272 101 280 147Q305 267 405 616L427 694H524L553 590Q672 174 681 95L682 84L684 95Q689 138 728 287T803 563T841
692Q841 694 885 694T929 693Q929 691 829 346L730 0H679L628 1L606 75Q478 524 470 600L469 611L467 600Q458 518 338 101L310 0H213L114 346Q14 691 14 693Z" />
<glyph unicode="X" glyph-name="X" horiz-adv-x="667" d="M14 0L275 367L153 528Q123 567 92 608T45 671T28 694H150L228 584Q315 463 316 461L326 448L497 694H610L609 692Q606 689 492 528Q440 454 409 410T378 366Q378 365 515 182L652 0H531L326 292Q326 293
299 254T226 146L128 0H14Z" />
<glyph unicode="Y" glyph-name="Y" horiz-adv-x="667" d="M4 693L64 694H125L174 621Q335 378 340 364L341 362Q376 421 395 450L558 694H663L383 277V0H282V278L143 485Q112 531 75 586T21 668L4 693Z" />
<glyph unicode="Z" glyph-name="Z" horiz-adv-x="611" d="M69 617V694H555V643L373 362Q190 81 190 79H234Q244 79 272 79T344 80T419 81H560V0H55V53L237 334Q420 615 420 617Q413 618 387 618Q380 618 334 618T245 617H69Z" />
<glyph unicode="[" glyph-name="bracketleft" horiz-adv-x="289" d="M94 -250V750H266V674H181V-174H266V-250H94Z" />
<glyph unicode="]" glyph-name="bracketright" horiz-adv-x="289" d="M22 674V750H194V-250H22V-174H107V674H22Z" />
<glyph unicode="^" glyph-name="asciicircum" horiz-adv-x="500" d="M146 612L212 694H287L353 612Q417 532 420 529Q421 528 418 527Q414 527 383 527H345L250 639Q244 633 199 580L154 527H116Q79 528 79 529Q82 532 146 612Z" />
<glyph unicode="_" glyph-name="underscore" horiz-adv-x="500" d="M0 -114V-38H499V-114H0Z" />
<glyph unicode="a" glyph-name="a" horiz-adv-x="481" d="M91 426Q156 460 227 460Q261 460 267 459Q330 447 368 400Q398 366 406 315Q407 306 407 152V0H317V39L306 32Q244 -10 159 -10Q137 -10 129 -8Q88 3 63 39T38 126Q38 142 39 146Q52 187 105 213Q177
247 295 252H314V277Q314 305 313 310Q308 343 287 365T236 387Q161 387 97 346Q94 344 91 342T85 338L83 337L82 355Q80 373 79 393T77 417L91 426ZM124 126Q124 99 149 83T208 66Q244 66 271 82T309 124Q314 137 314 166V186H303Q240 184 188 172Q152 163 138
154T124 126Z" />
<glyph unicode="b" glyph-name="b" horiz-adv-x="517" d="M166 405Q245 455 336 455Q361 455 381 445Q425 423 453 363T482 226Q482 170 470 135Q455 85 423 48T350 -3Q328 -11 303 -11Q234 -11 177 32Q175 33 173 34T170 37L168 38V0H75V694H165V550L166 405ZM168
118Q186 92 206 79T258 66Q275 66 281 67Q334 78 362 117T390 221T365 326T291 377Q279 379 265 379Q214 379 177 342L168 334V118Z" />
<glyph unicode="c" glyph-name="c" horiz-adv-x="444" d="M101 395Q163 460 245 460Q303 460 330 454T399 424Q410 417 410 415L396 338L386 344Q377 349 362 357T335 370Q305 381 258 381Q232 381 223 379Q177 366 152 325T126 224Q126 171 147 132T206 77Q227
68 255 68Q328 68 394 106L408 114L410 93Q411 72 412 52L414 32L412 30Q410 29 406 27T398 23Q328 -10 252 -10Q225 -10 219 -9Q142 4 90 64Q34 131 34 223Q34 250 35 258Q47 340 101 395Z" />
<glyph unicode="d" glyph-name="d" horiz-adv-x="517" d="M351 408V694H441V0H348V44L338 37Q276 -10 198 -10Q177 -10 168 -8Q99 11 62 90Q33 148 33 224Q33 247 39 289Q50 343 77 383T142 442Q169 455 197 455Q275 455 342 414L351 408ZM348 337Q334 351 325
358T300 371T263 378Q260 378 256 378T251 379Q248 379 234 376Q182 366 154 326T126 220Q126 90 225 67Q231 66 250 66Q268 66 276 68Q315 79 342 115L348 124V337Z" />
<glyph unicode="e" glyph-name="e" horiz-adv-x="444" d="M403 113Q403 106 406 76T409 38Q409 35 408 33T406 30T401 27T393 24Q327 -10 252 -10Q225 -10 218 -9Q144 4 94 58T30 190Q28 206 28 226Q28 245 30 261Q43 347 101 405Q160 461 235 461Q318 461 366
400Q411 342 415 238V219H113V215Q113 189 124 160Q156 79 232 66Q236 65 248 65Q273 65 298 70T341 82T373 96T396 108L403 113ZM340 289Q326 334 302 359T233 385Q230 385 226 385T219 384Q163 373 134 314Q123 294 123 289H340Z" />
<glyph unicode="f" glyph-name="f" horiz-adv-x="306" d="M262 705Q303 705 347 694V612L336 616Q303 628 274 628H266Q223 628 199 605Q190 594 188 589Q183 579 182 569T181 507V444H287V371H184V0H94V371H27V444H94V492Q94 544 95 550Q102 609 142 652T241
704Q246 705 262 705Z" />
<glyph unicode="g" glyph-name="g" horiz-adv-x="500" d="M82 38Q60 67 60 106T80 180L86 189L80 199Q55 240 55 286Q55 359 104 407T224 455Q281 455 323 421L322 423L318 427Q318 428 333 432Q398 455 465 455H471L478 416L485 377Q482 377 479 378Q444 385
401 385Q397 385 391 385T381 384L362 383L357 387L358 385Q389 340 389 287Q389 214 339 167T221 119Q177 119 138 142Q133 145 131 143Q125 134 125 117Q125 81 155 72L227 71Q311 70 335 66Q418 52 449 7Q471 -26 471 -62Q471 -85 469 -92Q453 -143 391 -174T250
-206Q170 -206 108 -175T30 -92Q28 -84 28 -68Q28 -32 49 4Q51 7 82 38ZM304 241T304 287T283 358T220 383Q182 383 161 357T140 287T161 218T220 191Q261 191 282 216ZM250 -134Q300 -134 343 -117T387 -69Q387 -49 371 -33Q354 -14 306 -7Q288 -5 216 -5Q161
-5 153 -7Q136 -11 125 -27T113 -66Q113 -78 115 -83Q125 -104 166 -121Q203 -134 250 -134Z" />
<glyph unicode="h" glyph-name="h" horiz-adv-x="517" d="M163 395Q223 455 307 455Q418 455 438 354Q442 331 443 164V0H350V157Q349 315 348 320Q334 378 259 378Q224 378 204 358Q173 327 167 268Q166 261 166 129V0H73V694H163V395Z" />
<glyph unicode="i" glyph-name="i" horiz-adv-x="239" d="M67 576V680H171V576H67ZM74 0V444H164V0H74Z" />
<glyph unicode="j" glyph-name="j" horiz-adv-x="267" d="M88 576V680H192V576H88ZM102 -86V444H192V180Q191 -45 191 -70T184 -113Q171 -153 140 -179T63 -205Q23 -205 -25 -188Q-59 -175 -59 -171Q-59 -169 -51 -133T-41 -96L-38 -99Q-34 -102 -28 -106T-13
-115T7 -123T31 -126Q81 -126 98 -92L102 -86Z" />
<glyph unicode="k" glyph-name="k" horiz-adv-x="489" d="M76 0V694H163V257L340 444H449L286 272L292 263Q295 259 377 138T463 12L471 0H372L309 92Q294 114 277 139T250 179T237 198L228 211L160 139V0H76Z" />
<glyph unicode="l" glyph-name="l" horiz-adv-x="239" d="M74 0V694H164V0H74Z" />
<glyph unicode="m" glyph-name="m" horiz-adv-x="794" d="M304 455Q353 455 382 438T430 383L437 391Q496 455 584 455Q695 455 715 354Q719 331 720 164V0H627V157Q626 315 625 320Q611 378 536 378Q501 378 481 358Q450 327 444 268Q443 261 443 129V0H350V157Q349
315 348 320Q334 378 259 378Q224 378 204 358Q173 327 167 268Q166 261 166 129V0H73V450H160V392Q223 455 304 455Z" />
<glyph unicode="n" glyph-name="n" horiz-adv-x="517" d="M160 392Q215 447 283 454Q285 454 292 454T303 455H306Q417 455 438 354Q442 331 443 164V0H350V157Q349 315 348 320Q334 378 259 378Q224 378 204 358Q173 327 167 268Q166 261 166 129V0H73V450H160V392Z" />
<glyph unicode="o" glyph-name="o" horiz-adv-x="500" d="M471 313T471 219T408 58T250 -10Q223 -10 215 -8Q141 6 93 57Q28 122 28 222Q28 311 85 380T232 460H244Q275 460 281 459Q363 445 417 379ZM377 230Q377 301 344 343T248 385Q199 385 162 350Q122 310
122 230Q122 130 182 88Q211 69 250 69Q273 69 289 74Q377 106 377 230Z" />
<glyph unicode="p" glyph-name="p" horiz-adv-x="517" d="M166 404Q238 455 337 455Q358 455 367 452Q419 436 451 369T483 222V214Q480 130 439 68T331 -9Q325 -10 306 -10Q234 -10 177 32Q169 38 168 38V-194H75V444H165V424L166 404ZM390 222Q390 284 355 330T266
376Q215 376 177 340L168 332V118Q200 66 257 66Q274 66 279 67Q326 78 358 120T390 222Z" />
<glyph unicode="q" glyph-name="q" horiz-adv-x="517" d="M33 220Q33 313 79 379T195 454H206Q235 454 241 453Q299 442 341 406L351 398V455H441V-194H348V41L338 35Q276 -8 198 -11Q171 -11 154 -5Q102 11 68 76T33 220ZM351 298Q336 335 316 355T256 375Q231
375 207 363Q170 344 148 306T126 220Q126 155 162 110T251 65Q308 65 345 115L351 123V298Z" />
<glyph unicode="r" glyph-name="r" horiz-adv-x="342" d="M171 389Q237 455 320 455H327V373H317Q261 369 219 335T167 248Q165 239 164 119V0H74V450H159V377L171 389Z" />
<glyph unicode="s" glyph-name="s" horiz-adv-x="383" d="M28 35Q29 36 32 56T39 95T43 115L53 109Q122 68 193 68Q256 68 271 106Q274 115 274 123Q274 152 248 167Q235 177 187 186Q135 197 115 207Q66 229 46 273Q33 298 33 326Q33 383 67 417T162 459Q167
460 175 460H190Q272 460 345 429Q345 428 338 388L331 349Q278 386 188 386Q138 386 125 360Q119 348 119 336Q119 307 148 292Q158 287 207 277Q255 268 278 256Q333 227 352 175Q360 153 360 130Q360 62 317 26T195 -10Q119 -10 46 24Q28 32 28 35Z" />
<glyph unicode="t" glyph-name="t" horiz-adv-x="361" d="M314 98Q315 93 323 61T333 27Q333 25 301 11Q242 -10 184 -10H172Q158 -10 146 -3Q107 23 99 91Q95 113 95 251V371H18V444H98V571H182V444H316V371H182V253Q183 134 185 123Q193 79 216 70Q221 68 234
68Q277 71 314 98Z" />
<glyph unicode="u" glyph-name="u" horiz-adv-x="517" d="M73 268V444H166V268L167 92Q173 71 188 65T238 59Q317 59 344 116Q349 128 349 148T350 291V444H443V0H353V39L346 35Q278 -10 168 -10Q136 -10 118 -1Q80 18 74 81Q73 89 73 268Z" />
<glyph unicode="v" glyph-name="v" horiz-adv-x="461" d="M178 0Q15 441 14 442Q14 444 60 444Q107 444 107 442Q109 440 137 364T196 194T232 67Q233 100 279 233T356 442Q356 444 401 444T446 442L282 0H178Z" />
<glyph unicode="w" glyph-name="w" horiz-adv-x="683" d="M14 444H105L108 434Q192 160 200 74V65L201 75Q206 144 282 399L296 444H381L399 381Q471 139 478 82Q480 72 480 69L481 70Q481 82 489 118Q504 190 562 386L580 444H668L534 1L483 0H432L429 10Q343
294 338 367L337 377Q336 375 336 370Q336 332 299 194Q257 50 245 11L242 0H195L148 1L14 444Z" />
<glyph unicode="x" glyph-name="x" horiz-adv-x="461" d="M187 229L6 444H107L227 294L344 444H393L442 443Q439 437 299 268L267 229L460 0H359L294 88Q280 107 262 131T236 166L227 177L100 0H0Q187 226 187 229Z" />
<glyph unicode="y" glyph-name="y" horiz-adv-x="461" d="M14 443Q14 444 61 444H109L122 411Q230 155 236 75L237 65V74Q245 161 348 424L356 444H401Q446 444 446 443L396 313Q345 183 293 49T236 -93Q209 -160 173 -187Q149 -204 113 -204Q88 -204 78 -203Q72
-202 64 -201T49 -198L43 -197Q43 -196 40 -157T36 -117L48 -121Q79 -133 114 -133Q127 -133 133 -130Q148 -122 163 -94Q169 -82 184 -42T200 1L188 29Q176 57 152 115T107 223T62 330T26 416L14 443Z" />
<glyph unicode="z" glyph-name="z" horiz-adv-x="435" d="M42 370V444H400V395L156 76L279 77H402V0H28V51L273 371L157 370H42Z" />
<glyph unicode="~" glyph-name="asciitilde" horiz-adv-x="500" d="M83 204Q86 256 114 291T186 327Q212 327 248 300Q282 275 301 271Q305 270 312 270Q337 270 340 315V327H416V316Q413 264 386 229T315 193Q288 193 251 220Q217 245 198 249Q194 250 187 250Q162
250 159 205V193H83V204Z" />
<glyph unicode="&#xa0;" glyph-name="uni00A0" horiz-adv-x="250" />
<glyph unicode="&#x131;" glyph-name="dotlessi" horiz-adv-x="239" d="M74 0V444H164V0H74Z" />
<glyph unicode="&#x237;" glyph-name="uni0237" horiz-adv-x="267" d="M-35 -95Q-4 -126 34 -126Q58 -126 76 -116T100 -88Q102 -82 102 181V444H192V180Q191 -45 191 -70T184 -113Q171 -153 140 -179T63 -205Q23 -205 -25 -188Q-59 -175 -59 -171L-47 -133L-35 -95Z" />
<glyph unicode="&#x300;" glyph-name="gravecomb" horiz-adv-x="0" d="M-415 692L-417 694H-324L-262 612Q-249 594 -233 572T-208 539L-200 528L-237 527H-275L-344 608Q-359 625 -378 647T-406 680T-415 692Z" />
<glyph unicode="&#x301;" glyph-name="acutecomb" horiz-adv-x="0" d="M-239 612L-177 694H-84L-86 692Q-86 691 -95 681T-123 648T-157 608L-226 527H-264L-301 528L-293 539Q-285 550 -269 572T-239 612Z" />
<glyph unicode="&#x302;" glyph-name="uni0302" horiz-adv-x="0" d="M-354 612L-288 694H-213L-147 612Q-83 532 -80 529Q-79 528 -82 527Q-86 527 -117 527H-155L-250 639Q-256 633 -301 580L-346 527H-384Q-421 528 -421 529Q-418 532 -354 612Z" />
<glyph unicode="&#x303;" glyph-name="tildecomb" horiz-adv-x="0" d="M-417 554Q-414 606 -386 641T-314 677Q-288 677 -252 650Q-218 625 -199 621Q-195 620 -188 620Q-163 620 -160 665V677H-84V666Q-87 614 -114 579T-185 543Q-212 543 -249 570Q-283 595
-302 599Q-306 600 -313 600Q-338 600 -341 555V543H-417V554Z" />
<glyph unicode="&#x304;" glyph-name="uni0304" horiz-adv-x="0" d="M-431 552V631H-70V552H-431Z" />
<glyph unicode="&#x306;" glyph-name="uni0306" horiz-adv-x="0" d="M-292 591T-250 591T-181 618T-150 685V694H-74V689Q-74 637 -100 595T-166 530Q-207 508 -250 508Q-294 508 -335 530Q-373 553 -400 595T-427 689V694H-351V685Q-348 646 -320 619Z" />
<glyph unicode="&#x307;" glyph-name="uni0307" horiz-adv-x="0" d="M-302 576V680H-198V576H-302Z" />
<glyph unicode="&#x308;" glyph-name="uni0308" horiz-adv-x="0" d="M-397 582V680H-299V582H-397ZM-202 582V680H-104V582H-202Z" />
<glyph unicode="&#x30a;" glyph-name="uni030A" horiz-adv-x="0" d="M-317 631Q-307 658 -278 676T-211 694Q-183 694 -155 684Q-114 666 -101 631Q-99 623 -99 611Q-99 598 -101 591Q-111 562 -141 545T-209 527Q-249 527 -278 545T-317 591Q-319 598 -319 611Q-319
623 -317 631ZM-155 610Q-155 651 -215 651Q-263 651 -263 610Q-263 570 -209 570T-155 610Z" />
<glyph unicode="&#x30b;" glyph-name="uni030B" horiz-adv-x="0" d="M-250 693Q-253 686 -287 610T-323 527H-399L-343 694H-296Q-250 694 -250 693ZM-84 693Q-87 686 -121 610T-157 527H-233L-177 694H-130Q-84 694 -84 693Z" />
<glyph unicode="&#x30c;" glyph-name="uni030C" horiz-adv-x="0" d="M-421 652Q-422 653 -419 654Q-415 654 -384 654H-346L-301 601Q-256 548 -250 542L-155 654H-117Q-80 653 -80 652Q-83 649 -147 569L-213 487H-288L-354 569Q-418 649 -421 652Z" />
<glyph unicode="&#x393;" glyph-name="Gamma" horiz-adv-x="542" d="M87 0V691H499V611H345L191 612V0H87Z" />
<glyph unicode="&#x394;" glyph-name="increment" horiz-adv-x="833" d="M203 348L362 694H470L629 348Q789 2 790 1Q790 0 416 0T42 1Q43 2 203 348ZM630 98Q630 100 584 198T481 422T407 603L405 610L403 600Q388 544 191 122L180 99L405 98H630Z" />
<glyph unicode="&#x398;" glyph-name="Theta" horiz-adv-x="778" d="M56 344Q56 495 145 599T363 715Q371 716 388 716Q461 716 524 683Q605 643 656 566T720 390Q722 368 722 344T720 300Q705 186 639 102Q609 67 587 50Q518 -6 430 -19Q418 -21 389 -21Q359
-21 347 -19Q230 -1 151 87T57 300Q56 310 56 344ZM420 637Q404 639 380 639Q333 639 290 614Q227 579 190 509T153 344Q153 231 209 153T355 58Q363 56 388 56Q431 56 469 72Q540 102 582 174T624 345Q624 451 575 529Q517 620 420 637ZM209 299V397H568V299H209Z"
/>
<glyph unicode="&#x39b;" glyph-name="Lambda" horiz-adv-x="611" d="M141 348L254 694H357L469 348Q582 2 582 1T527 0L473 1L469 11Q468 16 445 87Q305 518 296 599L294 610V606Q294 582 267 484Q225 330 119 8L117 0H72Q28 0 28 1T141 348Z" />
<glyph unicode="&#x39e;" glyph-name="Xi" horiz-adv-x="667" d="M47 600V688H619V600H47ZM111 314V401H555V314H111ZM42 0V88H624V0H42Z" />
<glyph unicode="&#x3a0;" glyph-name="Pi" horiz-adv-x="708" d="M86 0V691H621V0H517V615H190V0H86Z" />
<glyph unicode="&#x3a3;" glyph-name="Sigma" horiz-adv-x="722" d="M55 0Q61 10 173 169T288 332Q288 334 172 474L55 615V694H666V614H428L190 615L412 347L322 218Q240 101 228 84L447 85H666V0H55Z" />
<glyph unicode="&#x3a5;" glyph-name="Upsilon" horiz-adv-x="778" d="M629 563Q627 593 607 615T557 638Q534 638 515 630Q455 602 445 473Q441 438 441 202V0H337V202Q337 453 331 497Q313 634 226 638Q194 638 178 622Q151 600 148 563V555H55V565Q57 601 76
633T122 684Q165 716 219 716Q235 716 249 714Q317 701 353 627Q376 583 386 524L389 510Q390 511 392 527Q426 709 552 716H557Q622 716 669 673T722 565V555H629V563Z" />
<glyph unicode="&#x3a6;" glyph-name="Phi" horiz-adv-x="722" d="M312 641V694H410V587H413Q448 581 477 572Q598 532 645 435Q666 392 666 347T645 260Q588 137 413 107H410V0H312V54Q312 107 311 107Q304 108 296 109Q199 126 127 190T55 347T127 503T296 585L311
587Q312 587 312 641ZM312 347Q312 510 310 510Q292 510 264 497Q176 463 159 377Q157 369 157 347T159 317Q176 231 268 195Q285 190 312 184V347ZM428 506Q419 509 414 509L410 510V184Q454 195 473 203Q547 240 562 317Q564 325 564 347Q564 411 524 454Q484
494 428 506Z" />
<glyph unicode="&#x3a8;" glyph-name="Psi" horiz-adv-x="778" d="M340 187V694H438V187Q478 204 495 219Q534 252 550 315Q561 356 562 435Q562 575 593 608Q609 622 629 622Q632 622 645 622T670 621H722V545H719Q718 545 715 545T710 544Q679 536 666 487Q664
475 661 416T655 343Q626 142 446 109L438 108V0H340V108L326 110Q240 126 187 188T122 346Q120 359 117 417T111 487Q98 536 67 544Q65 544 62 544T58 545H55V621H107Q160 621 163 620Q191 613 202 573Q214 535 215 435Q216 369 221 340Q230 287 256 249Q283 206
333 190L340 187Z" />
<glyph unicode="&#x3a9;" glyph-name="Omega" horiz-adv-x="722" d="M69 537Q98 614 176 665T359 716Q506 716 598 621Q666 551 666 462Q666 449 665 442Q661 397 644 353T583 230Q539 151 529 126Q515 91 515 86Q517 85 528 85Q530 85 552 85T596 86H677V0H425V14Q429
79 465 168L492 228Q539 331 550 375Q562 417 562 460Q562 540 506 589T361 639Q277 639 223 595T160 480Q159 474 159 460Q159 417 171 375Q182 331 229 228L256 168Q292 79 296 14V0H44V86H125Q146 86 168 86T193 85L206 86Q206 91 192 126Q182 151 138 230Q71
350 60 415Q55 442 55 462Q55 500 69 537Z" />
<glyph unicode="&#x2013;" glyph-name="endash" horiz-adv-x="500" d="M0 236V312H499V236H0Z" />
<glyph unicode="&#x2014;" glyph-name="emdash" horiz-adv-x="1000" d="M0 236V312H999V236H0Z" />
<glyph unicode="&#x2018;" glyph-name="quoteleft" horiz-adv-x="278" d="M90 568L140 694H189L174 633Q159 572 158 571Q158 569 173 569H188V471H90V568Z" />
<glyph unicode="&#x2019;" glyph-name="quoteright" horiz-adv-x="278" d="M90 596V694H188V597L139 471H89L104 532Q119 593 120 594Q120 596 105 596H90Z" />
<glyph unicode="&#x201c;" glyph-name="quotedblleft" horiz-adv-x="500" d="M174 568L224 694H273L258 633Q243 572 242 571Q242 569 257 569H272V471H174V568ZM368 568L418 694H467L452 633Q437 572 436 571Q436 569 451 569H466V471H368V568Z" />
<glyph unicode="&#x201d;" glyph-name="quotedblright" horiz-adv-x="500" d="M33 596V694H131V597L82 471H32L47 532Q62 593 63 594Q63 596 48 596H33ZM227 596V694H325V597L276 471H226L241 532Q256 593 257 594Q257 596 242 596H227Z" />
<glyph unicode="&#xeffd;" glyph-name="uniEFFD" horiz-adv-x="300" d="M0 0V100H100V0H0ZM200 0V100H300V0H200Z" />
<glyph unicode="&#xeffe;" glyph-name="uniEFFE" horiz-adv-x="300" d="M0 0V100H100V0H0ZM200 0V100H300V0H200Z" />
<glyph unicode="&#xefff;" glyph-name="uniEFFF" horiz-adv-x="100" d="M0 0V100H100V0H0Z" />
</font>
</defs>
</svg>
